<?xml version="1.0" standalone="no"?>
<!DOCTYPE svg PUBLIC "-//W3C//DTD SVG 1.1//EN" "http://www.w3.org/Graphics/SVG/1.1/DTD/svg11.dtd" >
<svg xmlns="http://www.w3.org/2000/svg">
  <metadata>Created by iconfont</metadata>
  <defs>
  <font id="iconfont" horiz-adv-x="1024">
    <font-face
      font-family="iconfont"
      font-weight="400"
      font-stretch="normal"
      units-per-em="1024"
      ascent="896"
      descent="-128"
    />
      <missing-glyph />
      
      <glyph glyph-name="a-ziyuan542ldpi-copy" unicode="&#61004;" d="M512 896a512 512 0 1 1 512-512A512 512 0 0 1 512 896z m106.24-75.093333a450.986667 450.986667 0 0 0 334.933333-349.013334 8.533333 8.533333 0 0 1-4.693333 0l-78.506667-29.013333L778.666667 512l-176.64-85.333333 69.973333-146.346667-111.786667-69.12-109.226666 112.213333 6.826666 158.293334 151.04 132.266666zM261.546667 757.333333l-13.226667-70.826666-100.266667-107.946667 26.026667-98.56-111.36-71.253333a449.706667 449.706667 0 0 0 198.826667 348.586666zM512-65.706667a447.146667 447.146667 0 0 0-245.333333 72.96l53.76 10.666667 151.04-34.133333 42.666666-49.493334z m78.933333 7.253334a33.706667 33.706667 0 0 1-5.973333 9.813333l-80.64 88.746667-182.613333 42.666666-101.12-19.2a35.84 35.84 0 0 1-14.506667-7.253333 451.413333 451.413333 0 0 0-141.653333 283.306667 36.266667 36.266667 0 0 1 9.386666 1.706666l170.666667 110.506667-27.733333 109.226667 89.173333 96.426666 23.466667 128a22.613333 22.613333 0 0 1 0 10.666667A443.733333 443.733333 0 0 0 512 833.706667a381.44 381.44 0 0 0 42.666667-2.133334L548.266667 640 396.8 508.16l-8.96-213.333333L550.4 128l201.386667 125.013333-66.986667 141.226667 85.333333 42.666667 87.466667-66.133334 101.546667 37.546667v-25.173333a450.133333 450.133333 0 0 0-368.213334-441.6z"  horiz-adv-x="1024" />
      
      <glyph glyph-name="shijiweizhi" unicode="&#58971;" d="M724.3 778.5C606.9 896 416.5 896 299.1 778.5c-117.4-117.4-117.4-307.8 0-425.2l196-196c9.2-9.2 24.1-9.2 33.3 0l196 196c117.3 117.5 117.3 307.8-0.1 425.2zM511.7 437c-87.5 0-158.4 70.9-158.4 158.4s70.9 158.4 158.4 158.4 158.4-70.9 158.4-158.4S599.2 437 511.7 437zM511.7 74.7c-274.1 0-496.3-40.6-496.3-90.7s222.2-90.7 496.3-90.7S1008-66.1 1008-16s-222.2 90.7-496.3 90.7z m-13-108.5c-182.2 0-330 21.1-330 47.1s147.7 47.1 330 47.1 330-21.1 330-47.1-147.8-47.1-330-47.1z"  horiz-adv-x="1024" />
      
      <glyph glyph-name="sousuo" unicode="&#59066;" d="M493.8 33.6c-52 0-102.5 10.2-150.1 30.3-45.9 19.4-87.1 47.2-122.5 82.6-35.4 35.4-63.2 76.6-82.6 122.5-20.1 47.6-30.3 98-30.3 150.1s10.2 102.5 30.3 150.1c19.4 45.9 47.2 87.1 82.6 122.5 35.4 35.4 76.6 63.2 122.5 82.6 47.6 20.1 98 30.3 150.1 30.3s102.5-10.2 150.1-30.3c45.9-19.4 87.1-47.2 122.5-82.6 35.4-35.4 63.2-76.6 82.6-122.5 20.1-47.6 30.3-98 30.3-150.1s-10.2-102.5-30.3-150c-19.4-45.9-47.2-87.1-82.6-122.5s-76.6-63.2-122.5-82.6c-47.6-20.2-98.1-30.4-150.1-30.4z m0 711.1c-179.5 0-325.5-146-325.5-325.5s146-325.5 325.5-325.5 325.5 146 325.5 325.5-146 325.5-325.5 325.5zM885.8-17.6c-7.7 0-15.4 2.9-21.2 8.8L716 139.7c-11.7 11.7-11.7 30.7 0 42.4s30.7 11.7 42.4 0L907 33.6c11.7-11.7 11.7-30.7 0-42.4-5.9-5.9-13.6-8.8-21.2-8.8z"  horiz-adv-x="1024" />
      
      <glyph glyph-name="xiajiang" unicode="&#59106;" d="M512-69.3c-58.3 0-114.9 11.4-168.2 34-51.5 21.8-97.7 52.9-137.3 92.6s-70.8 85.9-92.6 137.3c-22.5 53.3-34 109.9-34 168.2s11.4 114.9 34 168.2c21.8 51.5 52.9 97.7 92.6 137.3s85.9 70.8 137.3 92.6c53.3 22.5 109.9 34 168.2 34 69.2 0 135.3-15.9 196.5-47.2 58.4-29.9 110-73.4 149.4-126 22.9-30.5 41.6-64 55.7-99.3C933.8 471.6 944 418 944 362.9c0-58.3-11.4-114.9-34-168.2-21.8-51.5-52.9-97.7-92.6-137.3-39.7-39.7-85.9-70.8-137.3-92.6-53.2-22.7-109.8-34.1-168.1-34.1z m0 804.1c-205.1 0-372-166.9-372-372s166.9-372 372-372 372 166.9 372 372c0 47.5-8.8 93.7-26.2 137.4-12.1 30.4-28.2 59.2-47.9 85.5-71 94.7-179.6 149.1-297.9 149.1zM350.7 301.6l140-140c0.3-0.3 0.7-0.7 1.1-1 0.2-0.2 0.4-0.3 0.5-0.5 0.2-0.2 0.4-0.3 0.6-0.5 0.2-0.2 0.5-0.4 0.7-0.6 0.1-0.1 0.3-0.2 0.4-0.3 0.3-0.2 0.5-0.4 0.8-0.6 0.1-0.1 0.3-0.2 0.4-0.3 0.3-0.2 0.6-0.4 0.8-0.5 0.1-0.1 0.3-0.2 0.4-0.2 0.3-0.2 0.6-0.3 0.8-0.5 0.1-0.1 0.3-0.2 0.4-0.2 0.3-0.1 0.5-0.3 0.8-0.4 0.2-0.1 0.3-0.2 0.5-0.3 0.2-0.1 0.5-0.2 0.7-0.3l0.6-0.3c0.2-0.1 0.4-0.2 0.7-0.3 0.2-0.1 0.5-0.2 0.7-0.3 0.2-0.1 0.4-0.1 0.6-0.2 0.3-0.1 0.5-0.2 0.8-0.3 0.2-0.1 0.4-0.1 0.5-0.2 0.3-0.1 0.6-0.2 0.9-0.2 0.2 0 0.3-0.1 0.5-0.1 0.3-0.1 0.6-0.1 0.9-0.2 0.2 0 0.3-0.1 0.5-0.1 0.3-0.1 0.6-0.1 0.9-0.2 0.2 0 0.4-0.1 0.6-0.1 0.3 0 0.6-0.1 0.8-0.1 0.3 0 0.6 0 0.8-0.1h4.2c0.3 0 0.6 0 0.8 0.1 0.3 0 0.6 0.1 0.8 0.1 0.2 0 0.4 0 0.6 0.1 0.3 0 0.6 0.1 0.9 0.2 0.2 0 0.3 0.1 0.5 0.1 0.3 0.1 0.6 0.1 0.9 0.2 0.2 0 0.3 0.1 0.5 0.1 0.3 0.1 0.6 0.2 0.9 0.2 0.2 0.1 0.4 0.1 0.5 0.2 0.3 0.1 0.5 0.2 0.8 0.3 0.2 0.1 0.4 0.1 0.6 0.2 0.2 0.1 0.5 0.2 0.7 0.3 0.2 0.1 0.4 0.2 0.7 0.3l0.6 0.3c0.3 0.1 0.5 0.2 0.7 0.3 0.2 0.1 0.3 0.2 0.5 0.3 0.3 0.1 0.5 0.3 0.8 0.4 0.1 0.1 0.3 0.2 0.4 0.2 0.3 0.2 0.6 0.3 0.8 0.5 0.1 0.1 0.3 0.2 0.4 0.2 0.3 0.2 0.6 0.4 0.9 0.5 0.1 0.1 0.2 0.2 0.4 0.3 0.3 0.2 0.5 0.4 0.8 0.6 0.1 0.1 0.3 0.2 0.4 0.3 0.2 0.2 0.5 0.4 0.7 0.6 0.2 0.1 0.3 0.3 0.5 0.4 0.2 0.2 0.4 0.3 0.6 0.5l0.9 0.9 0.2 0.2 140 140c11.7 11.7 11.7 30.7 0 42.4-5.9 5.9-13.5 8.8-21.2 8.8-7.7 0-15.4-2.9-21.2-8.8l-88.8-88.8V542.8c0 16.6-13.4 30-30 30s-30-13.4-30-30v-287.5l-88.8 88.8c-5.9 5.9-13.5 8.8-21.2 8.8s-15.4-2.9-21.2-8.8c-11-11.7-11-30.7 0.7-42.5z"  horiz-adv-x="1024" />
      
      <glyph glyph-name="zengchang" unicode="&#59107;" d="M512-69.3c-58.3 0-114.9 11.4-168.2 34-51.5 21.8-97.7 52.9-137.3 92.6s-70.8 85.9-92.6 137.3c-22.5 53.3-34 109.9-34 168.2s11.4 114.9 34 168.2c21.8 51.5 52.9 97.7 92.6 137.3s85.9 70.8 137.3 92.6c53.3 22.5 109.9 34 168.2 34 69.2 0 135.3-15.9 196.5-47.2 58.4-29.9 110-73.4 149.4-126 22.9-30.5 41.6-64 55.7-99.3C933.8 471.6 944 418 944 362.9c0-58.3-11.4-114.9-34-168.2-21.8-51.5-52.9-97.7-92.6-137.3-39.7-39.7-85.9-70.8-137.3-92.6-53.2-22.7-109.8-34.1-168.1-34.1z m0 804.1c-205.1 0-372-166.9-372-372s166.9-372 372-372 372 166.9 372 372c0 47.5-8.8 93.7-26.2 137.4-12.1 30.4-28.2 59.2-47.9 85.5-71 94.7-179.6 149.1-297.9 149.1zM673.2 424l-140 140c-0.3 0.3-0.7 0.7-1.1 1-0.2 0.2-0.4 0.3-0.5 0.5-0.2 0.2-0.4 0.3-0.6 0.5-0.2 0.2-0.5 0.4-0.7 0.6-0.1 0.1-0.3 0.2-0.4 0.3-0.3 0.2-0.5 0.4-0.8 0.6-0.1 0.1-0.3 0.2-0.4 0.3-0.3 0.2-0.6 0.4-0.8 0.5-0.1 0.1-0.3 0.2-0.4 0.2-0.3 0.2-0.6 0.3-0.8 0.5-0.1 0.1-0.3 0.2-0.4 0.2-0.3 0.1-0.5 0.3-0.8 0.4-0.2 0.1-0.3 0.2-0.5 0.3-0.2 0.1-0.5 0.2-0.7 0.3l-0.6 0.3c-0.2 0.1-0.4 0.2-0.7 0.3-0.2 0.1-0.5 0.2-0.7 0.3-0.2 0.1-0.4 0.1-0.6 0.2-0.3 0.1-0.5 0.2-0.8 0.3-0.2 0.1-0.4 0.1-0.5 0.2-0.3 0.1-0.6 0.2-0.9 0.2-0.2 0-0.3 0.1-0.5 0.1-0.3 0.1-0.6 0.1-0.9 0.2-0.2 0-0.3 0.1-0.5 0.1-0.3 0.1-0.6 0.1-0.9 0.2-0.2 0-0.4 0.1-0.6 0.1-0.3 0-0.6 0.1-0.8 0.1-0.3 0-0.6 0-0.8 0.1h-4.2c-0.3 0-0.6 0-0.8-0.1-0.3 0-0.6-0.1-0.8-0.1-0.2 0-0.4 0-0.6-0.1-0.3 0-0.6-0.1-0.9-0.2-0.2 0-0.3-0.1-0.5-0.1-0.3-0.1-0.6-0.1-0.9-0.2-0.2 0-0.3-0.1-0.5-0.1-0.3-0.1-0.6-0.2-0.9-0.2-0.2-0.1-0.4-0.1-0.5-0.2-0.3-0.1-0.5-0.2-0.8-0.3-0.2-0.1-0.4-0.1-0.6-0.2-0.2-0.1-0.5-0.2-0.7-0.3-0.2-0.1-0.4-0.2-0.7-0.3l-0.6-0.3c-0.3-0.1-0.5-0.2-0.7-0.3-0.2-0.1-0.3-0.2-0.5-0.3-0.3-0.1-0.5-0.3-0.8-0.4-0.1-0.1-0.3-0.2-0.4-0.2-0.3-0.2-0.6-0.3-0.8-0.5-0.1-0.1-0.3-0.2-0.4-0.2-0.3-0.2-0.6-0.4-0.9-0.5-0.1-0.1-0.2-0.2-0.4-0.3-0.3-0.2-0.5-0.4-0.8-0.6-0.1-0.1-0.3-0.2-0.4-0.3-0.2-0.2-0.5-0.4-0.7-0.6-0.2-0.1-0.3-0.3-0.5-0.4-0.2-0.2-0.4-0.3-0.6-0.5l-0.9-0.9-0.2-0.2-140-140c-11.7-11.7-11.7-30.7 0-42.4 5.9-5.9 13.5-8.8 21.2-8.8 7.7 0 15.4 2.9 21.2 8.8l88.8 88.8v-287.5c0-16.6 13.4-30 30-30s30 13.4 30 30V470.3l88.8-88.8c5.9-5.9 13.5-8.8 21.2-8.8s15.4 2.9 21.2 8.8c11 11.7 11 30.7-0.7 42.5z"  horiz-adv-x="1024" />
      
      <glyph glyph-name="duanxin" unicode="&#59115;" d="M915.6 677.8c-0.7 0-1.4 0.1-2.1 0.1H110.6c-0.7 0-1.4 0-2.1-0.1-35-1.2-63-30-63-65.3v-481.4c0-36 29.3-65.3 65.3-65.3h802.4c36 0 65.3 29.3 65.3 65.3V612.6c0.1 35.2-28 64-62.9 65.2z m-55.5-59.9L512 351.2 163.9 617.9h696.2z m53.1-492.1H110.8c-2.9 0-5.3 2.4-5.3 5.3v456l381.1-292c7.5-5.7 16.5-8.6 25.5-8.6s18 2.9 25.5 8.6l381.1 292v-455.9c-0.1-3-2.5-5.4-5.5-5.4z"  horiz-adv-x="1024" />
      
      <glyph glyph-name="xiangxidingwei" unicode="&#59173;" d="M512.1-92c-21.3 0-41.4 8.3-56.6 23.4l-0.1 0.1-231.9 231.8c-38.9 38.9-69 84.3-89.6 134.9C114 347.3 104 399 104 451.9c0 52.9 10 104.6 29.8 153.5 20.6 50.7 50.8 96.1 89.6 135 39 39 84.4 69.2 134.9 89.7C407.5 849.9 459.1 860 512 860c53 0 104.7-10.1 153.6-30 50.7-20.6 96.1-50.8 135-89.7 38.9-38.9 69-84.3 89.6-134.9C910 556.5 920 504.8 920 451.9s-10-104.6-29.8-153.5c-20.5-50.7-50.6-96.2-89.6-135.1L568.9-68.4c-15.1-15.2-35.3-23.6-56.8-23.6z m-14.4 66c3.9-3.8 9-6 14.4-6s10.5 2.1 14.2 5.9l231.9 231.9c33.2 33.2 58.9 71.9 76.4 115.2 16.9 41.7 25.5 85.8 25.5 131s-8.6 89.2-25.5 130.9c-17.6 43.2-43.3 81.9-76.5 115.1-33.2 33.2-71.9 59-115.1 76.6C601.3 791.4 557.2 800 512 800c-45.1 0-89.2-8.6-131-25.5-43.1-17.5-81.8-43.3-115.1-76.5-33.2-33.2-58.9-71.9-76.5-115.1C172.5 541.2 164 497.2 164 452s8.6-89.3 25.5-131.1C207 277.8 232.8 239 266 205.8L497.7-26zM512 251.4c-115.8 0-210 94.2-210 210s94.2 210 210 210 210-94.2 210-210-94.2-210-210-210z m0 360c-82.7 0-150-67.3-150-150s67.3-150 150-150 150 67.3 150 150-67.3 150-150 150z"  horiz-adv-x="1024" />
      
      <glyph glyph-name="dianshi" unicode="&#58918;" d="M436 34l151 0 0-50-151 0 0 50ZM208-42l606 0 0-50-606 0 0 50ZM973.9 817l-925 0C29.3 817 6 800.4 6 779.5l0-682.4C6 76.2 29.3 59 48.9 59l925 0c19.6 0 43.1 17.2 43.1 38.1L1017 779.5C1017 800.4 993.5 817 973.9 817zM562 109 461 109l0 27 101 0L562 109zM966 160 56 160 56 767l910 0L966 160z"  horiz-adv-x="1024" />
      
      <glyph glyph-name="kehu" unicode="&#58991;" d="M593.92 265.671111s-34.133333 9.102222-43.235556 13.653333c-18.204444 11.377778-29.582222 34.133333-29.582222 56.888889 0 25.031111 20.48 45.511111 34.133334 61.44 34.133333 40.96 52.337778 95.573333 52.337777 157.013334 0 127.431111-91.022222 229.831111-202.524444 229.831111S202.524444 679.822222 202.524444 552.391111c0-61.44 20.48-116.053333 52.337778-157.013333 20.48-11.377778 34.133333-36.408889 34.133334-61.44 0-22.755556-11.377778-43.235556-29.582223-56.888889v-2.275556c-2.275556 0-4.551111-2.275556-4.551111-2.275555-11.377778-6.826667-22.755556-11.377778-36.408889-11.377778-86.471111-29.582222-159.288889-75.093333-202.524444-131.982222h2.275555c-11.377778-15.928889-15.928889-34.133333-15.928888-52.337778 0-54.613333 45.511111-100.124444 102.4-100.124444H705.422222c59.164444 0 104.675556 43.235556 104.675556 100.124444 0 22.755556-9.102222 43.235556-20.48 61.44-43.235556 56.888889-111.502222 100.124444-195.697778 127.431111zM1001.244444 165.546667c-38.684444 47.786667-97.848889 88.746667-172.942222 111.502222 0 0-29.582222 6.826667-38.684444 11.377778-15.928889 11.377778-25.031111 29.582222-25.031111 50.062222 0 22.755556 18.204444 40.96 29.582222 52.337778 29.582222 36.408889 47.786667 84.195556 47.786667 138.808889 0 111.502222-79.644444 204.8-179.768889 204.8-15.928889 0-31.857778-2.275556-45.511111-6.826667 34.133333-50.062222 52.337778-109.226667 52.337777-175.217778 0-70.542222-25.031111-138.808889-68.266666-195.697778l-4.551111-4.551111v-2.275555c-4.551111-4.551111-11.377778-11.377778-13.653334-18.204445 0-2.275556 0-2.275556 2.275556-2.275555 4.551111-2.275556 11.377778-4.551111 18.204444-4.551111h2.275556l9.102222-4.551112c93.297778-29.582222 172.942222-81.92 225.28-147.911111 22.755556-29.582222 36.408889-63.715556 36.408889-100.124444 0-20.48-4.551111-36.408889-11.377778-54.613333h65.991111c52.337778 0 93.297778 38.684444 93.297778 88.746666-2.275556 25.031111-9.102222 43.235556-22.755556 59.164445z m0 0"  horiz-adv-x="1024" />
      
      <glyph glyph-name="zhengshu" unicode="&#58984;" d="M335.786667-42.666667s-47.786667 53.76-93.013334 98.133334c-48.213333 13.226667-96.853333 25.6-145.92 37.12L196.266667 264.533333c52.48-68.266667 144.64-127.146667 231.68-148.48L335.786667-42.666667zM789.333333 64c-45.226667-44.373333-101.546667-106.666667-101.546666-106.666667l-91.306667 158.72c87.04 21.333333 170.666667 79.786667 223.146667 148.48l107.52-171.946666c-0.426667-0.426667-73.386667-10.666667-137.813334-28.586667zM511.573333 810.666667c-173.226667 0-322.133333-157.44-322.133333-331.093334s148.906667-314.026667 322.133333-314.026666 322.133333 148.906667 322.133334 322.56S684.8 810.666667 511.573333 810.666667z m186.026667-308.48L641.28 443.733333c-7.68-7.68-11.52-18.773333-8.96-29.866666v-1.28l12.8-79.36c1.28-7.68 0-15.786667-3.84-22.186667-9.813333-17.493333-31.573333-24.32-49.066667-14.506667l-64.853333 34.56c-10.24 5.546667-23.04 5.546667-33.28-1.28l-63.146667-33.706666c-7.253333-3.84-14.933333-4.693333-23.04-3.84-19.2 2.986667-32.853333 21.76-29.866666 40.96l13.226666 82.346666c1.28 9.813333-1.706667 19.2-8.533333 26.453334L325.973333 502.186667c-4.693333 5.546667-8.533333 12.8-9.813333 20.053333-2.986667 19.2 11.093333 37.546667 30.293333 40.533333l72.533334 11.52c11.52 0.426667 21.76 7.68 26.453333 18.346667l33.28 70.826667c5.973333 11.946667 18.773333 20.48 32.853333 20.48s26.453333-7.68 32.853334-20.48l32.853333-70.4c4.693333-11.093333 14.933333-18.346667 27.306667-19.2l72.533333-11.093334c7.253333-1.28 14.506667-4.693333 20.053333-9.813333 13.653333-14.08 14.08-37.12 0.426667-50.773333z"  horiz-adv-x="1024" />
      
      <glyph glyph-name="t-wjishuzhichirenyuan-copy" unicode="&#61002;" d="M1047.086292 843.868855a152.917296 152.917296 0 0 1-216.219099 1.489454l-1.489455-1.489454-384.775664-388.499299 217.708553-220.190977 384.775665 388.251057a156.392689 156.392689 0 0 1 0 219.942735z m-471.660492-393.215904l-24.824237 26.065448L874.806091 806.136016a18.86642 18.86642 0 0 0 24.824236 0 19.114662 19.114662 0 0 0 0-26.313691z m54.116835-54.61332l-24.824236 26.065448L956.229586 777.836386a18.121693 18.121693 0 0 0 24.824237 0 18.369935 18.369935 0 0 0 0-26.065448z m54.116836-54.613321l-24.824237 24.824237L983.039762 695.916406a18.121693 18.121693 0 0 0 24.824236 0 18.369935 18.369935 0 0 0 0-26.065448zM374.597727 59.174743l-19.611146 19.859389 181.216925 183.451107-71.245558 71.990285-181.465168-183.451107-19.362905 19.611147-42.697686-22.341813-142.491117-233.347822 42.449444-42.697687 229.127702 142.491117zM243.029274 895.999752a248.242364 248.242364 0 0 1-60.322894-7.695514c1.985939-1.737697 4.22012-3.227151 5.957817-4.964847l87.629554-88.622524a116.177426 116.177426 0 0 0 0-163.343475 113.695003 113.695003 0 0 0-160.612809 0L27.058418 719.995916a102.524096 102.524096 0 0 0-12.163876 14.894541A242.53279 242.53279 0 1 1 243.029274 895.999752zM985.522185-74.627892a137.278027 137.278027 0 0 1 0 193.13256l-194.125528 195.863225-191.146621-192.884317L794.375565-74.627892a134.299119 134.299119 0 0 1 189.905409-1.489454l1.241211 1.489454z m-129.334271 130.823726a55.60629 55.60629 0 0 0 78.444587 0 56.847501 56.847501 0 0 0 0-79.934041 55.854532 55.854532 0 0 0-78.69283 0 56.847501 56.847501 0 0 0 0.248243 79.934041z"  horiz-adv-x="1092" />
      
      <glyph glyph-name="chanyelian1-copy-copy" unicode="&#61003;" d="M922.445913 445.224811a121.544348 121.544348 0 0 1-113.174261-73.728l-69.097739 14.825739c0.445217 6.633739 0.445217 13.312 0 19.94574a194.782609 194.782609 0 0 1-118.249739 177.641739l32.01113 77.913043c7.390609-0.445217 14.825739-0.445217 22.26087 0a119.184696 119.184696 0 0 1 122.88 114.509913 121.989565 121.989565 0 0 1-243.489391 0 115.489391 115.489391 0 0 1 64.02226-102.489043l-32.055652-77.913044A215.173565 215.173565 0 0 1 534.26087 602.431072a211.478261 211.478261 0 0 1-131.695305-46.391652L245.314783 708.170203c14.959304 19.589565 23.106783 43.542261 23.195826 68.162782A119.184696 119.184696 0 0 1 146.521043 892.267594a119.184696 119.184696 0 0 1-122.434782-115.934609 119.184696 119.184696 0 0 1 122.434782-116.379826 127.065043 127.065043 0 0 1 70.967653 23.641044l158.630956-153.06574a192.467478 192.467478 0 0 1-46.391652-124.260173c0.044522-37.932522 11.53113-74.930087 32.946087-106.22887l-134.500174-101.064348a124.304696 124.304696 0 0 1-82.098087 30.586435 116.424348 116.424348 0 1 1 0-231.869217 118.739478 118.739478 0 0 1 121.544348 115.934608 114.999652 114.999652 0 0 1-14.870261 56.097392l134.455652 101.108869a209.608348 209.608348 0 0 1 148.435478-60.282435 211.478261 211.478261 0 0 1 75.152696 13.445566l57.477565-96.923827a114.999652 114.999652 0 0 1-49.597217-92.738782 121.989565 121.989565 0 1 1 86.728348 110.85913l-57.967305 95.944348a197.097739 197.097739 0 0 1 84.413218 106.22887l69.097739-14.825739v-3.739827a121.989565 121.989565 0 1 1 121.499826 115.934609v0.445218zM534.26087 247.637333A160.01113 160.01113 0 0 0 371.934609 405.333333 160.01113 160.01113 0 0 0 534.26087 559.779246a160.01113 160.01113 0 0 0 164.641391-154.445913A160.01113 160.01113 0 0 0 534.26087 247.637333z"  horiz-adv-x="1068" />
      
      <glyph glyph-name="skype-fill" unicode="&#59522;" d="M883.7 317.4c4.1 22.5 6.3 45.5 6.3 68.5 0 51-10 100.5-29.7 147-19 45-46.3 85.4-81 120.1-34.7 34.7-75.1 61.9-120.1 80.9-46.6 19.7-96 29.7-147 29.7-24 0-48.1-2.3-71.5-6.8-32.3 17.1-68.5 26.2-105.1 26.2-59.7 0-115.9-23.3-158.1-65.5-42.2-42.2-65.5-98.4-65.5-158.1 0-38 9.8-75.4 28.1-108.4-3.7-21.4-5.7-43.3-5.7-65.1 0-51 10-100.5 29.7-147 19-45 46.2-85.4 80.9-120.1 34.7-34.7 75.1-61.9 120.1-80.9 46.6-19.7 96-29.7 147-29.7 22.2 0 44.4 2 66.2 5.9 33.5-18.9 71.3-29 110-29 59.7 0 115.9 23.2 158.1 65.5 42.3 42.2 65.5 98.4 65.5 158.1 0.1 38-9.7 75.5-28.2 108.7z m-370-162.9c-134.2 0-194.2 66-194.2 115.4 0 25.4 18.7 43.1 44.5 43.1 57.4 0 42.6-82.5 149.7-82.5 54.9 0 85.2 29.8 85.2 60.3 0 18.3-9 38.7-45.2 47.6l-119.4 29.8c-96.1 24.1-113.6 76.1-113.6 124.9 0 101.4 95.5 139.5 185.2 139.5 82.6 0 180-45.7 180-106.5 0-26.1-22.6-41.2-48.4-41.2-49 0-40 67.8-138.7 67.8-49 0-76.1-22.2-76.1-53.9s38.7-41.8 72.3-49.5l88.4-19.6c96.8-21.6 121.3-78.1 121.3-131.3 0-82.3-63.3-143.9-191-143.9z"  horiz-adv-x="1024" />
      
      <glyph glyph-name="shuben" unicode="&#58896;" d="M251.30097778 191.76106667L459.51431111 106.83733332999998c28.80853333 0 52.0192 23.3472 52.0192 52.0192V514.38933333c0 104.31146667-84.51413333 188.96213333-188.96213333 188.96213334h-66.62826667c-26.76053333 0-48.46933333-21.7088-48.46933333-48.46933334v-398.40426666c0.27306667-28.39893333 17.47626667-53.93066667 43.8272-64.7168zM809.99537778 191.76106667L601.78204444 106.83733332999998c-28.80853333 0-52.0192 23.3472-52.0192 52.0192V514.38933333c0 104.31146667 84.51413333 188.96213333 188.96213334 188.96213334h66.62826666c26.76053333 0 48.46933333-21.7088 48.46933334-48.46933334v-398.40426666c-0.27306667-28.39893333-17.47626667-53.93066667-43.8272-64.7168zM901.06311111 594.2613333300001l-17.47626667 17.2032-6.82666666 5.7344v-360.72106666c0-37.95626667-22.80106667-71.81653333-57.89013334-86.15253334l-39.45813333-16.11093333c10.51306667-3.00373333 22.25493333-5.18826667 33.1776-4.36906667l60.48426667 5.05173334c26.2144 6.00746667 45.19253333 32.768 45.19253333 64.03413333V551.5264c-0.27306667 16.52053333-6.41706667 32.08533333-17.2032 42.73493333zM242.56284444 170.46186666999995c-35.2256 14.336-57.89013333 48.19626667-57.89013333 86.15253333V620.7488000000001l-11.0592-9.28426667-17.47626667-17.2032c-10.78613333-10.6496-16.93013333-26.2144-16.93013333-42.5984v-332.45866666c0-31.26613333 18.97813333-58.02666667 45.19253333-64.03413334l60.48426667-5.05173333c11.74186667-0.95573333 24.43946667 1.6384 35.49866667 5.05173333l-37.81973334 15.29173334z"  horiz-adv-x="1024" />
      
      <glyph glyph-name="chixugaijin" unicode="&#58907;" d="M1000.5504 764.0064c20.224-16.5888 28.2624-40.3456 17.92-53.1456l-62.1056-75.776-137.5232 112.7936 62.208 75.776c10.3936 12.6976 35.328 9.6256 55.5008-7.0656l64-52.5824zM483.328 340.6848l311.8592 385.024 137.5232-112.7936-311.9104-385.024-137.472 112.7936z m-29.4912-39.9872c0.6656 12.544 15.9744 16.5376 27.648 7.3216l54.9888-45.1584 54.9376-45.1584c11.5712-9.472 10.6496-25.344-1.536-28.4672l-58.368-14.9504-58.2656-14.9504c-12.288-3.072-26.7264 8.7552-26.0608 21.3504l3.328 60.0064 3.328 60.0064z m434.3808 75.8784c20.1216-2.048 34.7648-19.968 32.768-40.2432a459.9808 459.9808 0 0 0-148.48-294.7584 460.544 460.544 0 0 0-310.4256-119.9616 457.3696 457.3696 0 0 0-179.5584 36.1984 458.5472 458.5472 0 0 0-146.6368 98.8672 459.4176 459.4176 0 0 0-135.0656 326.144c0 62.3104 12.0832 122.6752 36.1984 179.5584a458.5472 458.5472 0 0 0 98.8672 146.6368 459.4176 459.4176 0 0 0 326.144 135.0656 458.752 458.752 0 0 0 171.52-32.9216 36.5568 36.5568 0 1 0-27.136-67.84 387.584 387.584 0 0 1-144.384 27.7504 389.12 389.12 0 0 1-138.8032-25.4976l138.8544-362.496L81.2544 458.752a395.776 395.776 0 0 1-7.3216-75.6736c0-103.6288 40.448-201.1136 113.7152-274.432a385.1776 385.1776 0 0 1 274.432-113.664c96.768 0 189.5936 35.84 261.12 101.0176a386.6624 386.6624 0 0 1 125.0304 247.9104 36.5056 36.5056 0 0 0 39.9872 32.6656z"  horiz-adv-x="1024" />
      
      <glyph glyph-name="kexunhuanziyuan" unicode="&#58972;" d="M237.696 291.328c62.912-2.176 112-51.392 109.632-109.888a101.44 101.44 0 0 0-25.6-63.168A307.2 307.2 0 0 1 512 52.992c44.352 0 87.36 9.216 126.72 26.816a27.84 27.84 0 0 0 36.352-12.928c6.4-13.248 0.384-28.992-13.312-35.2A366.016 366.016 0 0 0 512 0a363.648 363.648 0 0 0-228.288 79.744l-8.384 7.04c-8.768-3.2-18.112-5.504-27.776-6.592l-9.856-0.768c-62.912 2.24-112 51.392-109.632 109.888 2.112 52.352 44.864 94.976 99.84 101.248l9.792 0.768z m471.872 339.584c98.56-63.424 158.976-170.112 158.976-286.656 0-27.072-3.2-53.76-9.6-79.552 22.4-19.072 36.672-46.912 37.056-78.08v-1.28c0.192-55.04-43.328-100.416-99.072-105.408l-9.344-0.512c-60.608-0.64-110.272 46.208-110.976 104.704-0.704 58.496 47.808 106.496 108.416 107.2 8 0.064 15.744-0.64 23.296-2.176 3.584 17.92 5.376 36.352 5.376 55.104 0 98.624-51.136 188.864-134.528 242.56a25.92 25.92 0 0 0-7.68 36.736 28.032 28.032 0 0 0 38.08 7.36zM512 768c62.912-2.176 112-51.392 109.632-109.888-2.112-52.352-44.8-94.912-99.84-101.248L512 556.16c-44.992 1.536-82.88 27.136-99.968 62.976-113.472-38.4-196.224-140.608-201.472-262.592a27.072 27.072 0 0 0-28.544-25.344 26.88 26.88 0 0 0-26.24 27.52C161.984 506.24 264.064 629.12 402.816 672.128l-0.512-6.08c2.112 52.352 44.8 94.912 99.84 101.248L512 768z"  horiz-adv-x="1024" />
      
      <glyph glyph-name="wz-icon-6" unicode="&#58891;" d="M851.882667 233.130667H658.773333v75.264l-98.474666-175.445334L658.730667-42.666667v74.88h98.474666c23.893333 0 46.933333 12.458667 59.562667 34.816L938.666667 283.861333a99.498667 99.498667 0 0 0-86.784-50.773333z m-138.24 302.08l98.901333 175.402666-63.274667-37.845333s-24.746667 44.330667-34.773333 62.037333a77.312 77.312 0 0 1-67.498667 40.021334 77.653333 77.653333 0 0 1-67.413333-40.448s-22.613333-40.021333-45.269333-80.938667l46.08-81.706667-63.701334-36.992 196.906667 0.426667h0.085333zM333.226667 334.933333l-96.853334-171.648a104.533333 104.533333 0 0 1-0.426666-102.826666L113.92 277.461333a71.722667 71.722667 0 0 0 0.426667 70.570667l49.450666 87.338667-63.274666 37.418666h197.333333l98.56-175.530666-63.36 37.76h0.085333z m430.336-80.853333l-98.517334 175.488 169.301334 100.309333c29.013333-51.968 58.112-103.893333 87.381333-155.733333 14.250667-24.533333 14.250667-55.125333 0.426667-80.042667a78.08 78.08 0 0 0-67.925334-39.68h-90.88l0.213334-0.341333zM253.098667 150.101333s22.613333 39.978667 45.696 81.28h197.376v-200.917333H320.554667a76.16 76.16 0 0 0-67.882667 39.637333 81.28 81.28 0 0 0 0.426667 80zM562.346667 744.533333c-23.04-40.789333-150.826667-267.946667-150.442667-267.946666L241.749333 577.28s81.322667 146.645333 102.698667 182.4c12.117333 21.077333 33.536 35.712 59.136 35.712h243.797333c-35.584 0-67.029333-18.901333-85.034666-50.858667z"  horiz-adv-x="1024" />
      
      <glyph glyph-name="rili" unicode="&#59057;" d="M68.5056 724.7872m147.6096 0l598.272 0q147.6096 0 147.6096-147.6096l0-449.5872q0-147.6096-147.6096-147.6096l-598.272 0q-147.6096 0-147.6096 147.6096l0 449.5872q0 147.6096 147.6096 147.6096ZM68.5056 724.7872m147.6096 0l562.0224 0q147.6096 0 147.6096-147.6096l0-449.5872q0-147.6096-147.6096-147.6096l-562.0224 0q-147.6096 0-147.6096 147.6096l0 449.5872q0 147.6096 147.6096 147.6096ZM68.5056 540.4672h857.2416v-81.4592H68.5056zM816.5376 761.9072H213.9136c-80.3328 0-145.408-72.704-145.408-162.3552v-101.632h893.4912V599.552c0 89.6512-65.1264 162.3552-145.4592 162.3552zM786.176 724.7872H208.0256a139.52 139.52 0 0 1-139.52-139.52v-87.3472H925.696V585.2672a139.52 139.52 0 0 1-139.52 139.52zM457.5744 93.0304c-1.6896 0-3.3792 0-5.12 0.256a50.1248 50.1248 0 0 0-34.304 19.3536l-75.7248 98.4576a39.8848 39.8848 0 1 0 63.2832 48.5888l56.32-73.472 174.08 150.0672a39.8848 39.8848 0 1 0 52.0704-60.4672l-198.0928-170.7008a50.0224 50.0224 0 0 0-32.512-12.0832zM457.5744 133.12c-1.6896 0-3.3792 0-5.12 0.256a50.1248 50.1248 0 0 0-34.4064 19.2l-75.6224 98.6112a39.8848 39.8848 0 1 0 63.2832 48.5888l56.32-73.472 174.08 150.0672a39.8848 39.8848 0 1 0 52.0704-60.4672l-198.0928-170.7008a50.0224 50.0224 0 0 0-32.512-12.0832zM317.952 578.56c-33.5872 0-60.7744 24.4736-60.7744 54.6304V741.6832c0 30.1568 27.1872 54.5792 60.7744 54.5792S378.88 771.84 378.88 741.6832v-108.6464C378.88 602.88 351.5392 578.56 317.952 578.56zM706.1504 578.56c-33.5872 0-60.7744 24.4736-60.7744 54.6304V741.6832c0 30.1568 27.1872 54.5792 60.7744 54.5792s60.7744-24.4224 60.7744-54.5792v-108.6464c0-30.1568-27.1872-54.4768-60.7744-54.4768zM307.2 578.56a49.8688 49.8688 0 0 0-49.8688 49.8688V727.4496a49.8688 49.8688 0 1 0 99.6864 0v-99.1744A49.8688 49.8688 0 0 0 307.2 578.56zM695.2448 578.56a49.8688 49.8688 0 0 0-49.8688 49.8688V727.4496a49.8688 49.8688 0 1 0 99.6864 0v-99.1744a49.8688 49.8688 0 0 0-49.8176-49.7152z"  horiz-adv-x="1024" />
      
      <glyph glyph-name="xiayiye" unicode="&#59196;" d="M361.4 745.7l334-315.8v-90.2l-334-315.8V131.3l275 253.5-275 253.5V745.7z"  horiz-adv-x="1024" />
      
      <glyph glyph-name="shangyiye" unicode="&#59197;" d="M685.5 23.8l-334 315.8v90.2l334 315.8v-107.5l-275-253.5 275-253.5v-107.3z"  horiz-adv-x="1024" />
      
      <glyph glyph-name="facebookfacebook52" unicode="&#58888;" d="M1024 384c0 282.763636-229.236364 512-512 512C229.236364 896 0 666.763636 0 384s229.236364-512 512-512C794.763636-128 1024 101.236364 1024 384zM374.504727 384 374.504727 481.978182l60.043636 0L434.548364 541.230545c0 79.918545 23.877818 137.495273 111.383273 137.495273l104.075636 0 0-97.745455-73.262545 0c-36.724364 0-45.056-24.389818-45.056-49.943273l0-49.058909 112.919273 0L629.201455 384l-97.512727 0 0-295.517091L434.548364 88.482909 434.548364 384 374.504727 384z"  horiz-adv-x="1024" />
      
      <glyph glyph-name="tuite1" unicode="&#61001;" d="M1024 701.44a420.352 420.352 0 0 0-120.832-33.28 210.432 210.432 0 0 1 92.16 116.224 422.4 422.4 0 0 0-133.632-51.2A209.92 209.92 0 0 1 499.2 588.8a211.968 211.968 0 0 1 5.632-47.616 596.48 596.48 0 0 0-433.152 220.16 208.896 208.896 0 0 1-28.672-105.472A204.8 204.8 0 0 1 132.096 481.28C97.28 482.304 32.256 491.52 32.256 507.392v-2.56a214.528 214.528 0 0 1 173.056-204.8 193.024 193.024 0 0 0-51.2-7.168 199.68 199.68 0 0 0-38.4 3.584 210.944 210.944 0 0 1 196.608-145.92A420.864 420.864 0 0 0 51.2 59.392a438.784 438.784 0 0 0-51.2 3.072 594.944 594.944 0 0 1 322.048-94.208A593.408 593.408 0 0 1 921.6 565.76v27.136a427.008 427.008 0 0 1 102.4 108.544z m0 0"  horiz-adv-x="1024" />
      
      <glyph glyph-name="baijiu" unicode="&#59257;" d="M620.1-47H372.9c-44.3 0-80.4 36.1-80.4 80.4v520c0 44.3 36.1 80.4 80.4 80.4h247.2c44.3 0 80.4-36.1 80.4-80.4v-520c0-44.3-36.1-80.4-80.4-80.4zM372.9 573.8c-11.2 0-20.4-9.1-20.4-20.4v-520c0-11.2 9.2-20.4 20.4-20.4h247.2c11.2 0 20.4 9.2 20.4 20.4v520c0 11.2-9.2 20.4-20.4 20.4H372.9zM580.5 573.8h-168V721.6h168v-147.8z m-108 60h48v27.7h-48v-27.7zM378 804h240v-60H378z"  horiz-adv-x="1024" />
      
      <glyph glyph-name="wifi" unicode="&#59256;" d="M507.5 157.5m-59.5 0a59.5 59.5 0 1 1 119 0 59.5 59.5 0 1 1-119 0ZM642.6 244.4c-7.7 0-15.4 2.9-21.2 8.8-62.8 62.8-164.9 62.8-227.7 0-11.7-11.7-30.7-11.7-42.4 0s-11.7 30.7 0 42.4c41.8 41.8 97.3 64.8 156.3 64.8s114.5-23 156.3-64.8c11.7-11.7 11.7-30.7 0-42.4-6-5.8-13.7-8.8-21.3-8.8zM285.9 377c-7.7 0-15.4 2.9-21.2 8.8-11.7 11.7-11.7 30.7 0 42.4 32.8 32.8 71 58.2 113.7 75.5 41.2 16.7 84.6 25.2 129.2 25.2s88.1-8.5 129.2-25.2c42.6-17.3 80.9-42.7 113.7-75.5 11.7-11.7 11.7-30.7 0-42.4s-30.7-11.7-42.4 0c-53.6 53.6-124.8 83.1-200.4 83.1-75.7 0-146.8-29.5-200.4-83.1-6.1-5.9-13.8-8.8-21.4-8.8zM829.2 506.8c-7.7 0-15.4 2.9-21.2 8.8-80.3 80.3-187 124.6-300.5 124.6-113.4 0-220.2-44.2-300.5-124.6-11.7-11.7-30.7-11.7-42.4 0s-11.7 30.7 0 42.4c46.3 46.3 100.3 82.2 160.5 106.6 58.1 23.6 119.5 35.5 182.4 35.5s124.3-12 182.4-35.5c60.2-24.4 114.2-60.3 160.5-106.6 11.7-11.7 11.7-30.7 0-42.4-5.8-5.9-13.5-8.8-21.2-8.8z"  horiz-adv-x="1024" />
      
      <glyph glyph-name="baijiu12" unicode="&#59255;" d="M421.1-42H173.9c-44.3 0-80.4 36.1-80.4 80.4v520c0 44.3 36.1 80.4 80.4 80.4h247.2c44.3 0 80.4-36.1 80.4-80.4v-520c0-44.3-36.1-80.4-80.4-80.4zM173.9 578.8c-11.2 0-20.4-9.1-20.4-20.4v-520c0-11.2 9.2-20.4 20.4-20.4h247.2c11.2 0 20.4 9.2 20.4 20.4v520c0 11.2-9.2 20.4-20.4 20.4H173.9zM381.5 578.8h-168V726.6h168v-147.8z m-108 60h48v27.7h-48v-27.7zM179 809h240v-60H179zM843.3-42h-181c-20.3 0-37.3 14.6-40.4 34.6l-51.2 328.2c-1.8 11.8 1.6 23.8 9.3 32.9 7.8 9.1 19.1 14.3 31.1 14.3h285.5c12 0 23.4-5.2 31.2-14.4 7.8-9.2 11.1-21.2 9.2-33.1l-53.3-328.2c-3.3-19.9-20.3-34.3-40.4-34.3z m-164.7 60H827l47.1 290H633.4l45.2-290z"  horiz-adv-x="1024" />
      
      <glyph glyph-name="dingzhi" unicode="&#59252;" d="M515.5-36.8c-18.7 0-36.2 9.1-46.9 24.4l-356.7 508c-12.6 18-13.8 42-3 61.2l103.6 183.1c10.2 17.9 29.3 29.1 49.9 29.1h506.1c20.6 0 39.7-11.1 49.9-29.1L922 556.8c10.8-19.2 9.7-43.2-3-61.2l-356.7-508c-10.6-15.3-28.1-24.4-46.8-24.4zM161.9 528.7l353.6-503.5 353.6 503.5L767 709H264L161.9 528.7zM679 489H353c-16.6 0-30 13.4-30 30s13.4 30 30 30h326c16.6 0 30-13.4 30-30s-13.4-30-30-30z"  horiz-adv-x="1024" />
      
      <glyph glyph-name="bianxieshixiangtijiegou" unicode="&#59254;" d="M797.2 15H243.8c-36.3 0-65.8 29.5-65.8 65.8V420.2c0 36.3 29.5 65.8 65.8 65.8h553.3c36.3 0 65.8-29.5 65.8-65.8v-339.3c0.1-36.4-29.4-65.9-65.7-65.9zM243.8 426c-3.2 0-5.8-2.6-5.8-5.8v-339.3c0-3.2 2.6-5.8 5.8-5.8h553.3c3.2 0 5.8 2.6 5.8 5.8V420.2c0 3.2-2.6 5.8-5.8 5.8H243.8zM705-75c-16.6 0-30 13.4-30 30v90c0 16.6 13.4 30 30 30s30-13.4 30-30v-90c0-16.6-13.4-30-30-30zM360-75c-16.6 0-30 13.4-30 30v90c0 16.6 13.4 30 30 30s30-13.4 30-30v-90c0-16.6-13.4-30-30-30zM666 211H375c-16.6 0-30 13.4-30 30s13.4 30 30 30h291c16.6 0 30-13.4 30-30s-13.4-30-30-30zM614 427c-16.6 0-30 13.4-30 30V724.7c0 3.4-2.8 6.3-6.3 6.3H464.3c-3.4 0-6.3-2.8-6.3-6.3V457c0-16.6-13.4-30-30-30s-30 13.4-30 30V724.7c0 36.5 29.7 66.3 66.3 66.3h113.5c36.5 0 66.3-29.7 66.3-66.3V457c-0.1-16.6-13.5-30-30.1-30z"  horiz-adv-x="1024" />
      
      <glyph glyph-name="guolvxitong" unicode="&#59253;" d="M942.3 551.8c-23.5 55.6-57.2 105.6-100.1 148.4-42.9 42.9-92.8 76.5-148.4 100.1C636.2 824.6 575 837 512 837S387.8 824.6 330.2 800.3c-55.6-23.5-105.6-57.2-148.4-100.1-42.9-42.9-76.5-92.8-100.1-148.4C57.4 494.2 45 433 45 370s12.4-124.2 36.7-181.8c23.5-55.6 57.2-105.6 100.1-148.4 42.9-42.9 92.8-76.5 148.4-100.1C387.8-84.6 449-97 512-97s124.2 12.4 181.8 36.7c55.6 23.5 105.6 57.2 148.4 100.1s76.5 92.8 100.1 148.4C966.6 245.8 979 307 979 370s-12.4 124.2-36.7 181.8zM512-37c-224.4 0-407 182.6-407 407s182.6 407 407 407 407-182.6 407-407-182.6-407-407-407zM344.5 530.5m-59.5 0a59.5 59.5 0 1 1 119 0 59.5 59.5 0 1 1-119 0ZM679.5 530.5m-59.5 0a59.5 59.5 0 1 1 119 0 59.5 59.5 0 1 1-119 0ZM511.5 369.5m-59.5 0a59.5 59.5 0 1 1 119 0 59.5 59.5 0 1 1-119 0ZM344.5 208.5m-59.5 0a59.5 59.5 0 1 1 119 0 59.5 59.5 0 1 1-119 0ZM679.5 208.5m-59.5 0a59.5 59.5 0 1 1 119 0 59.5 59.5 0 1 1-119 0Z"  horiz-adv-x="1024" />
      
      <glyph glyph-name="lengquenengli" unicode="&#59251;" d="M942.3 551.8c-23.5 55.6-57.2 105.6-100.1 148.4-42.9 42.9-92.8 76.5-148.4 100.1C636.2 824.6 575 837 512 837S387.8 824.6 330.2 800.3c-55.6-23.5-105.6-57.2-148.4-100.1-42.9-42.9-76.5-92.8-100.1-148.4C57.4 494.2 45 433 45 370s12.4-124.2 36.7-181.8c23.5-55.6 57.2-105.6 100.1-148.4 42.9-42.9 92.8-76.5 148.4-100.1C387.8-84.6 449-97 512-97s124.2 12.4 181.8 36.7c55.6 23.5 105.6 57.2 148.4 100.1s76.5 92.8 100.1 148.4C966.6 245.8 979 307 979 370s-12.4 124.2-36.7 181.8zM512-37c-224.4 0-407 182.6-407 407s182.6 407 407 407 407-182.6 407-407-182.6-407-407-407zM668 538c-50.1 0-95.2-22.1-126-57V694h-30c-92.6 0-168-75.4-168-168 0-50.1 22.1-95.2 57-126H188v-30c0-92.6 75.4-168 168-168 50.1 0 95.2 22.1 126 57v-213h30c92.6 0 168 75.4 168 168 0 50.1-22.1 95.2-57 126h213v30c0 92.6-75.4 168-168 168z m-186 91.8v-207.5c-45 13-78 54.6-78 103.8s33 90.6 78 103.7zM356 262c-49.1 0-90.7 33-103.8 78h207.5c-13-45-54.6-78-103.7-78z m186-151.8V317.8c45-13 78-54.6 78-103.8s-33-90.7-78-103.8zM564.2 400c13 45 54.6 78 103.8 78s90.7-33 103.8-78H564.2z"  horiz-adv-x="1024" />
      
      <glyph glyph-name="xiangtijiegou" unicode="&#59250;" d="M797.2 15H243.8c-36.3 0-65.8 29.5-65.8 65.8V760.2c0 36.3 29.5 65.8 65.8 65.8h553.3c36.3 0 65.8-29.5 65.8-65.8v-679.3c0.1-36.4-29.4-65.9-65.7-65.9zM243.8 766c-3.2 0-5.8-2.6-5.8-5.8v-679.3c0-3.2 2.6-5.8 5.8-5.8h553.3c3.2 0 5.8 2.6 5.8 5.8V760.2c0 3.2-2.6 5.8-5.8 5.8H243.8zM623 524H412c-35.3 0-64 28.7-64 64v41c0 35.3 28.7 64 64 64h211c35.3 0 64-28.7 64-64v-41c0-35.3-28.7-64-64-64zM412 633c-2.2 0-4-1.8-4-4v-41c0-2.2 1.8-4 4-4h211c2.2 0 4 1.8 4 4v41c0 2.2-1.8 4-4 4H412zM573 129H462c-35.3 0-64 28.7-64 64V397c0 35.3 28.7 64 64 64h111c35.3 0 64-28.7 64-64v-204c0-35.3-28.7-64-64-64zM462 401c-2.2 0-4-1.8-4-4v-204c0-2.2 1.8-4 4-4h111c2.2 0 4 1.8 4 4V397c0 2.2-1.8 4-4 4H462zM705-75c-16.6 0-30 13.4-30 30v90c0 16.6 13.4 30 30 30s30-13.4 30-30v-90c0-16.6-13.4-30-30-30zM360-75c-16.6 0-30 13.4-30 30v90c0 16.6 13.4 30 30 30s30-13.4 30-30v-90c0-16.6-13.4-30-30-30z"  horiz-adv-x="1024" />
      
      <glyph glyph-name="lengque" unicode="&#59249;" d="M465-62.5c-60.1 0-116.6 23.4-159.1 65.9-42.5 42.5-65.9 99-65.9 159.1 0 68.1 30.9 132.4 83.5 174.9V668.5C323.5 746.5 387 810 465 810s141.5-63.5 141.5-141.5v-331.1c52.6-42.6 83.5-106.8 83.5-174.9 0-60.1-23.4-116.6-65.9-159.1s-99-65.9-159.1-65.9z m0 812.5c-44.9 0-81.5-36.6-81.5-81.5v-345.8l0.1-15.8-13-9.1C326.4 267 300 216.4 300 162.5c0-91 74-165 165-165s165 74 165 165c0 53.9-26.4 104.5-70.7 135.4l-13 9.1 0.1 16.6V668.5c0.1 44.9-36.5 81.5-81.4 81.5zM464.5 54C403 54 353 104 353 165.5S403 277 464.5 277 576 227 576 165.5 526 54 464.5 54z m0 163c-28.4 0-51.5-23.1-51.5-51.5s23.1-51.5 51.5-51.5 51.5 23.1 51.5 51.5-23.1 51.5-51.5 51.5zM464.5 242c-16.3 0-29.5 13.2-29.5 29.5v116c0 16.3 13.2 29.5 29.5 29.5s29.5-13.2 29.5-29.5v-116c0-16.3-13.2-29.5-29.5-29.5zM844.5 697.1h-68.4l28.1 28.1 0.3 0.3c4.7 4.9 4.6 12.6-0.3 17.3-4.9 4.7-12.6 4.6-17.3-0.3l-28.1-28.1v68.4c0 6.8-5.5 12.2-12.2 12.2-6.8 0-12.2-5.5-12.2-12.2v-68.4l-28.1 28.1c-4.8 4.8-12.5 4.8-17.3 0-4.8-4.8-4.8-12.5 0-17.3l28.1-28.1h-68.4c-6.8 0-12.2-5.5-12.2-12.2 0-6.8 5.5-12.2 12.2-12.2H717l-28.1-28.1c-4.8-4.8-4.8-12.5 0-17.3 4.8-4.8 12.5-4.8 17.3 0l28.1 28.1V587c0-6.8 5.5-12.2 12.2-12.2 6.8 0 12.2 5.5 12.2 12.2v68.4l28.1-28.1c4.7-4.6 12.3-4.6 17 0 4.9 4.7 5 12.4 0.3 17.3L776 672.7h68.4c6.8 0 12.2 5.5 12.2 12.2 0.1 6.7-5.4 12.2-12.1 12.2zM673.1 623.6c-6.8 0-12.2-5.5-12.2-12.2 0-6.8 5.5-12.2 12.2-12.2 6.8 0 12.2 5.5 12.2 12.2 0 6.8-5.4 12.2-12.2 12.2zM673.1 746c6.8 0 12.2 5.5 12.2 12.2 0 6.8-5.5 12.2-12.2 12.2s-12.2-5.5-12.2-12.2c0-6.7 5.4-12.2 12.2-12.2zM820 746c6.8 0 12.2 5.5 12.2 12.2 0 6.8-5.5 12.2-12.2 12.2-6.8 0-12.2-5.5-12.2-12.2-0.1-6.7 5.4-12.2 12.2-12.2zM820 623.6c-6.8 0-12.2-5.5-12.2-12.2 0-6.8 5.5-12.2 12.2-12.2 6.8 0 12.2 5.5 12.2 12.2 0 6.8-5.5 12.2-12.2 12.2z"  horiz-adv-x="1024" />
      
    </font>
</defs>
</svg>
